Its Entertainment 2014 Dvdrip |Highly Compressed Movie 3Mb Only

14 comments
10171909 240680149461175 6638543007904080836 n Its Entertainment 2014 DVDScr |Highly Compressed Movie 3Mb Only|
Entertainment (2014) DVDScr
General
Complete name : Entertainment (2014) DVDScr.mkv
Format version : Version 2
File size : 700 MiB
Duration : 2h 18mn
Overall bit rate : 706 Kbps
Video

ID : 1
Format : AVC
Format/Info : Advanced Video Codec
Format profile : High@L3.0
Format settings, CABAC : Yes
Format settings, ReFrames : 4 frames
Codec ID : V_MPEG4/ISO/AVC
Duration : 2h 18mn
Bit rate : 624 Kbps
Width : 640 pixels
Height : 272 pixels
Display aspect ratio : 2.35:1
Frame rate mode : Constant
Frame rate : 29.970 fps
Color space : YUV
Chroma subsampling : 4:2:0
Bit depth : 8 bits
Scan type : Progressive
Bits/(Pixel*Frame) : 0.120
Stream size : 606 MiB (87%)
Audio

ID : 2
Format : MPEG Audio
Format version : Version 1
Format profile : Layer 3
Mode extension : MS Stereo
Codec ID : A_MPEG/L3
Codec ID/Hint : MP3
Duration : 2h 18mn
Bit rate mode : Constant
Bit rate : 80.0 Kbps
Channel(s) : 2 channels
Sampling rate : 32.0 KHz
Stream size : 79.3 MiB (11%)
Default : Yes
Forced : No
::Screenshots::
aDirdIMCJ0 Its Entertainment 2014 DVDScr |Highly Compressed Movie 3Mb Only|
7XNjpbMiOC Its Entertainment 2014 DVDScr |Highly Compressed Movie 3Mb Only|
6MpdajF4N9 Its Entertainment 2014 DVDScr |Highly Compressed Movie 3Mb Only|
::Proof Of Highly Compressed Movie::
 
az2Cmre Its Entertainment 2014 DVDScr |Highly Compressed Movie 3Mb Only| 
 
~~ Information ~~
This movie is Super Highly Compressed with original source quality. so you may download easily via slow internet connection, It is just 3.5 MB, While Extracting with Winrar or Winzip you will see the original 700 MB movie instantly. Enjoy and Do like our Facebook Page for Exclusive High Quality Shares in highly compressed  formats.
 
 Compressed Size: 3.19Mib
Original Size: 700Mib

 Click on the below Download link to download instantly

Download

Stay Tuned with MovieReborn.Blogspot.com for more downloads, We do lots of Efforts to compress movie in this small size, We appreciate your Like and sharing us on Social media to make us more better and better:)
Next PostNewer Post Home

14 comments:

  1. sir i m using 2g in pc give direct limk allah god will help you... its a request

    ReplyDelete
    Replies



    1. TOO BAD, the links provided above are not working. I tried it and just a suggestion, do not waste your time guys! Good news is that, I already found the real file, after some searching all around. I want to ease your burden looking, so I am just giving you the real download link.


      CLICK THIS LINK TO DOWNLOAD THE FULL FILE

      CLICK THIS LINK TO DOWNLOAD THE FULL FILE


      I JUST WISH YOU HAVE A GREAT DAY AND ENJOY! HOPE I REALLY HELPED :)

      Delete
  2. listen guyz if you complete the survey and download the rar file after extract you won't be able to play the file its only show the size large but it didn't play so i suggest don't use this site it is fake i download three movies its all entertainment and gurdians of the galaxy two times its all fake

    ReplyDelete
  3. fucking link u bastard asshole

    ReplyDelete
  4. yaar me 2 din se parsaan ho gya but survey se aage nai aata kya karu pl............. help me yaar

    ReplyDelete
  5. U fucking bitch dont download it coz he fuxking fake..

    ReplyDelete
  6. totally waste time r u son of bitch

    ReplyDelete
  7. d download buton is just u are

    ReplyDelete

Powered by Blogger.