Raja Natwarlal 2014 DVDSCR HIghly Compressed Full Movie 4 MB Download

1 comment
Download Raja Natwarlal 2014 DVDSCR Best Quality 720p Print Highly Compressed to 5 MB only. The movie Raja Natwarlal 2014 DVDSCR 5.1 Audio is highly compressed with original source quality to 5 MB only. After extracting with winrar you get total 700 MB movie. (Check Screenshot)

Raja Natwarlal 2014 DVDSCR Highly Compressed Download 

raja natwarlal Raja Natwarlal 2014 DVDSCR |Highly Compressed Movie 3.4Mib Only|

Raja Natwarlal 2014 Movie description:
http://www.imdb.com/title/tt3483712/
IMDB Rating: 8.0/10.0
 
GENRE: Drama | Thriller
Complete name : RAJA NATWARLAL  DVDSCR.mkv
Format : Matroska
Format version : Version 2
File size : 707 MiB
Duration : 2h 16mn
Overall bit rate : 718 Kbps
Encoded date : UTC 2014-08-29 12:27:08

Technical Information:
Video
ID : 1
Format : AVC
Format/Info : Advanced Video CodecFormat profile : High@L2.1Format settings, CABAC : YesFormat settings, ReFrames : 4 framesCodec ID : V_MPEG4/ISO/AVCDuration : 2h 16mnBit rate : 636 KbpsWidth : 640 pixelsHeight : 272 pixelsDisplay aspect ratio : 2.35:1Frame rate mode : ConstantFrame rate : 23.976 fpsColor space : YUVBit depth : 8 bitsScan type : ProgressiveBits/(Pixel*Frame) : 0.152Stream size : 609 MiB (87%)Language : EnglishDefault : YesForced : No

AudioID : 2Format : MPEG AudioFormat version : Version 1Format profile : Layer 3Mode : Joint stereoMode extension : MS StereoCodec ID : A_MPEG/L3Codec ID/Hint : MP3Duration : 2h 16mnBit rate mode : ConstantBit rate : 80.0 KbpsChannel(s) : 2 channelsSampling rate : 32.0 KHzCompression mode : LossyStream size : 78.1 MiB (11%)Default : YesForced : No
::Screenshots::
TVQW3Os Raja Natwarlal 2014 DVDSCR |Highly Compressed Movie 3.4Mib Only|ICJDepT Raja Natwarlal 2014 DVDSCR |Highly Compressed Movie 3.4Mib Only|ZiMGtsg Raja Natwarlal 2014 DVDSCR |Highly Compressed Movie 3.4Mib Only|Lo0MKrn Raja Natwarlal 2014 DVDSCR |Highly Compressed Movie 3.4Mib Only|LM1FKX0 Raja Natwarlal 2014 DVDSCR |Highly Compressed Movie 3.4Mib Only|
l9mwVmi Raja Natwarlal 2014 DVDSCR |Highly Compressed Movie 3.4Mib Only|
DkadyMI Raja Natwarlal 2014 DVDSCR |Highly Compressed Movie 3.4Mib Only|
xMcuRCE Raja Natwarlal 2014 DVDSCR |Highly Compressed Movie 3.4Mib Only|
PBLIEeD Raja Natwarlal 2014 DVDSCR |Highly Compressed Movie 3.4Mib Only|
hPsFl0s Raja Natwarlal 2014 DVDSCR |Highly Compressed Movie 3.4Mib Only|
adzKPGa Raja Natwarlal 2014 DVDSCR |Highly Compressed Movie 3.4Mib Only|
O7eMasL Raja Natwarlal 2014 DVDSCR |Highly Compressed Movie 3.4Mib Only|
 
::Highly Compressed Proof::
 
tEaUxJs Raja Natwarlal 2014 DVDSCR |Highly Compressed Movie 3.4Mib Only|

How to Download: 



1. Click on "DOWNLOAD NOW" imgae below.
2. Your Download will be started instantly.
Download Raja Natwarlal 2014 Highly Compressed

Only 4.0 MB
Compressed Size : 4.0 MB
Original Media File Size : 692 MB
DO not forget to Say thanks after Downloading, This helps us to make our site more better.

Next PostNewer Post Previous PostOlder Post Home

1 comment:




  1. TOO BAD, the links provided above are not working. I tried it and just a suggestion, do not waste your time guys! Good news is that, I already found the real file, after some searching all around. I want to ease your burden looking, so I am just giving you the real download link.


    CLICK THIS LINK TO DOWNLOAD THE FULL FILE

    CLICK THIS LINK TO DOWNLOAD THE FULL FILE


    I JUST WISH YOU HAVE A GREAT DAY AND ENJOY! HOPE I REALLY HELPED :)

    ReplyDelete

Powered by Blogger.